#TITLE:Triple Corpse Hammerblow;
#SUBTITLE:;
#ARTIST:Children of Bodom;
#TITLETRANSLIT:;
#SUBTITLETRANSLIT:;
#ARTISTTRANSLIT:;
#CREDIT:Diane Crow;
#BANNER:TripleCorpseHammerblow-bannner.png;
#BACKGROUND:TripleCorpseHammerblow-bg.png;
#LYRICSPATH:;
#CDTITLE:DianeCrow-cdtitle.png;
#MUSIC:Triple Corpse Hammerblow.mp3;
#OFFSET:-0.130;
#SAMPLESTART:34.540;
#SAMPLELENGTH:27.160;
#SELECTABLE:YES;
#BPMS:0.000=155.000;
#STOPS:;
#BGCHANGES:;
// cache tags:
#FIRSTBEAT:0.000;
#LASTBEAT:633.250;
#SONGFILENAME:Songs/music/Triple Corpse Hammerblow/Triple Corpse Hammerblow.sm;
#HASMUSIC:1;
#HASBANNER:1;
#MUSICLENGTH:246.700;
// end cache tags

//---------------dance-single - Very Challenging----------------
#NOTES:
     dance-single:
     Very Challenging:
     Hard:
     10:
     1.000,1.000,1.000,0.515,1.000,1892.000,357.000,127.000,0.000,6.000:
1000
0100
1000
0010
1000
0010
0100
0001
,
0100
0010
1000
0001
0100
0010
0100
0001
,
1000
0100
0010
0001
1000
0010
0100
1000
,
0022
0000
0000
0000
0000
0000
0000
0033
2200
0000
0000
0000
0000
0000
0000
3300
,
2002
0000
0000
0000
,
0000
0000
0000
0000
0000
0000
0000
3003
,
0001
0100
0010
1000
0010
0100
0001
0100
,
0022
0000
0000
0000
0000
0000
0000
0033
2200
0000
0000
0000
0000
0000
0000
3300
,
2002
0000
0000
0000
0000
0000
0000
0000
0000
0000
0000
0000
0000
0000
0000
0000
0000
0000
0000
0000
3003
0000
0000
0000
0000
0000
0000
0000
0000
0000
0000
1111
0000
0000
0000
0000
0000
0000
0000
0000
0000
0000
0000
0000
0000
0000
0000
0000
0000
0000
0000
0000
0000
0000
0000
0000
0000
0000
0000
0000
0000
0000
0000
0000
,
2020
0000
0000
0000
0000
0000
0000
3030
0202
0000
0000
0000
0000
0000
0000
0303
,
0220
0000
0000
0330
0010
0000
0010
0000
0010
0000
0010
0000
0010
0000
0010
0000
,
0010
0010
0010
0110
1010
0011
0110
1010
,
0100
1000
0100
1000
0100
1010
0101
0110
,
1010
0000
1100
0000
0101
0000
0011
0000
1000
0010
0100
0001
0220
0000
0330
0000
,
1000
0010
0100
0010
1100
0001
0010
0001
0100
0010
1000
0100
0011
0100
0010
1000
,
0010
0100
0001
0010
1001
0100
0001
0010
1000
0100
0010
0001
1100
0001
0010
0100
,
2020
0000
0000
3030
0001
0010
0100
1000
0202
0000
0000
0303
0010
0100
0001
1000
,
0220
0000
0000
0000
0000
0000
0330
0000
0001
0000
0100
0000
0010
0000
1000
0000
0100
0000
0001
0000
0100
0000
0010
0000
2200
0000
0000
0000
0000
3300
0000
0000
,
0010
0100
0010
1000
0011
0100
1000
0001
0010
1000
0100
0010
1001
0100
0001
0010
,
1000
0100
0001
0010
1100
0001
1000
0010
0100
0010
1000
0100
1001
0010
0100
0001
,
2200
0000
0000
3300
0010
0100
1000
0100
0022
0000
0000
0033
0100
0010
0001
0100
,
2002
0000
0000
0000
0000
0000
3003
0000
0010
0000
0100
0000
0010
0000
0001
0000
1000
0000
0010
0000
0100
0000
1000
0000
0022
0000
0000
0000
0000
0033
0000
0000
,
1000
0100
0010
1000
0011
0100
1000
0010
0001
0010
0100
0001
1100
0010
0100
0001
,
0100
0010
1000
0100
1001
0010
0100
0001
0100
1000
0010
0100
0011
0100
1000
0001
,
0220
0000
0000
0330
1000
0001
0010
0100
0022
0000
0000
0033
0100
0010
0001
0100
,
2020
0000
0000
0000
0000
0000
3030
0000
0100
0000
0001
0000
0010
0000
0100
0000
0010
0000
1000
0000
0100
0000
1000
0000
0202
0000
0000
0000
0000
0303
0000
0000
,
0010
0001
0100
0010
1100
0010
0001
0100
0010
1000
0100
0010
1001
0100
0001
0010
,
0100
1000
0100
0001
1100
0010
0001
0100
0001
0100
1000
0010
1001
0100
1000
0010
,
2002
0000
0000
3003
0010
0100
0010
1000
0202
0000
0000
0303
1000
0001
0100
0010
,
2200
0000
0000
0000
0000
0000
3300
0000
0001
0000
0010
0000
0100
0000
0010
0000
0001
0000
1000
0000
0010
0000
0100
0000
2020
0000
0000
0000
0000
3030
0000
0000
,
0101
0000
0010
0100
0011
0000
0100
0010
1100
0000
0010
0100
0010
0000
1001
0000
,
0110
0000
1000
0010
0101
0000
0001
0100
1010
0000
0100
0010
0001
1000
0100
0010
,
1001
0010
0100
0010
1001
0100
0010
0100
1001
0010
0100
0010
1001
0100
0010
0100
,
0011
0100
1000
0100
0011
1000
0100
1000
0011
0100
1000
0100
0011
1000
0100
1000
,
0110
0000
0001
0010
1100
0000
1000
0100
0011
0000
1000
0001
1000
0000
0110
0000
,
1001
0000
0100
0001
1010
0000
0010
1000
0101
0000
0010
0100
1000
0100
0001
0010
,
1001
0100
0010
0100
1001
0010
0100
0010
1001
0100
0010
0100
1001
0010
0100
0010
,
1100
0010
0001
0010
1100
0001
0010
0001
1100
0010
0001
0010
1100
0001
0010
0001
,
0100
0010
0100
0010
1001
0000
1000
0100
1000
0100
0011
0000
1000
0100
0011
0000
,
1000
0000
0010
0000
0100
0000
0001
0000
1000
0000
0010
0000
1100
0000
0000
0000
0000
0000
0011
0000
0000
0000
0000
0000
0001
0000
0000
0010
0000
0000
0001
0000
0000
0010
0000
0000
2200
0000
0000
0000
0000
0000
3300
0000
0000
0000
0000
0000
,
0010
0100
0001
0010
1100
0001
0100
1000
0010
0100
1000
0100
0011
0100
0001
0010
,
0100
0001
1000
0100
1001
0010
0100
0001
0010
1000
0100
0010
1001
0100
0001
0010
,
2200
0000
0000
3300
0010
0001
0010
0100
0022
0000
0000
0033
0100
1000
0100
0010
,
2002
0000
0000
0000
0000
0000
3003
0000
0010
0000
0100
0000
1000
0000
0100
0000
0010
0000
0001
0000
0100
0000
1000
0000
0220
0000
0000
0000
0000
0330
0000
0000
,
0001
0010
1000
0001
1100
0010
1000
0001
0010
1000
0100
0010
1001
0100
0010
0100
,
0001
0010
1000
0100
0011
0100
0001
0010
1000
0100
1000
0010
1100
0010
0100
1000
,
0202
0000
0000
0303
0010
1000
0001
0100
2020
0000
0000
3030
0100
0001
1000
0010
,
2002
0000
0000
0000
0000
0000
3003
0000
0010
0000
0001
0000
0010
0000
0100
0000
1000
0000
0001
0000
0010
0000
1000
0000
0202
0000
0000
0000
0000
0303
0000
0000
,
1010
0000
0100
0010
1001
0000
0010
0100
1001
0000
0100
0010
0001
0000
1010
0000
,
0101
0000
1000
0001
0110
0000
0001
1000
0110
0000
0001
1000
0100
0010
0001
0010
,
1100
0001
0010
0100
0011
1000
0100
0010
1100
0010
0100
1000
0011
0100
0010
1000
,
0011
1000
0100
0010
1100
0001
0010
0100
0011
0100
0010
0001
1100
0010
0100
1000
,
0011
0000
0100
1000
0011
0000
1000
0100
0011
0000
0100
1000
0100
0000
0011
0000
,
1100
0000
0010
0001
1100
0000
0001
0010
1100
0000
0010
0001
0010
0100
1000
0100
,
0011
0100
0010
0100
0011
0100
0010
0100
0011
0100
0010
0100
0011
1000
0100
0010
,
1100
0010
0100
0010
1100
0010
0100
0010
1100
0010
0100
0010
1100
0001
0010
0100
,
1000
0001
1000
0001
0110
0000
1000
0001
1000
0001
0110
0000
1000
0001
0110
0000
,
0001
0010
0001
0010
1100
0000
0011
0000
1000
0100
1000
0100
0011
0000
1100
0000
,
0001
0100
0001
0100
1010
0000
0001
0100
0001
0100
1010
0000
0001
0100
1010
0000
,
0011
1000
0100
1000
0011
1000
0100
0010
1100
0001
0010
0001
1100
0001
0010
0100
,
1000
0010
1000
0010
0101
0000
1000
0010
1000
0010
0101
0000
1000
0010
0101
0000
,
0100
0010
0100
0010
1100
0000
0011
0000
0010
0100
0010
0100
0011
0000
1100
0000
,
0001
1000
0001
1000
0110
0000
0001
1000
0001
1000
0110
0000
0001
1000
0110
0000
,
1001
0010
0100
1000
0101
0010
0100
0001
1000
0000
0000
0011
1100
0011
1100
0011
,
0100
0000
0100
0000
0010
0100
0010
0000
0100
0000
0100
0000
0010
0100
0010
0000
,
0000
1001
0100
1001
,
0010
0000
0010
0000
0100
0010
0100
0000
0010
0000
0010
0000
0100
0010
0100
0000
,
0000
0000
0000
0000
0000
0000
1001
0000
0000
1000
0100
0010
0001
0000
0000
0001
0000
0000
1001
0000
0000
0000
0000
0000
,
1000
0000
1000
0000
0001
1000
0001
0000
1000
0000
1000
0000
0001
1000
0001
0000
,
0000
1101
1011
0111
,
0100
0000
0100
0000
1000
0100
1000
0000
0010
0000
0010
0000
0001
0010
0001
0000
,
1100
0000
0011
0000
0000
0100
0011
0000
1010
0000
0101
0000
0000
0010
0101
0000
,
0110
0000
1001
0000
0000
0100
1001
0000
0110
0000
1001
0000
0000
0010
1001
0000
,
1100
0000
0011
0000
0000
0100
0011
0000
1010
0000
0101
0000
0000
0010
0101
0000
,
1001
0000
0000
0000
0000
0000
0100
0000
0010
0000
0100
0000
0010
0000
0100
0000
0010
0000
1000
0000
0000
0100
0000
0000
0010
0000
0000
0001
0000
0000
0100
0000
0000
0010
0000
0000
1000
0000
0000
0100
0000
0000
0010
0000
0000
0001
0000
0000
,
1000
0010
1000
0010
1000
0010
1000
0010
0100
0010
0100
0010
0100
0010
0100
0010
,
0001
0010
0001
0010
0001
0010
0001
0010
0001
1000
0001
1000
0001
1000
0001
1000
,
0100
1000
0100
1000
0100
1000
0100
1000
0100
0001
0100
0001
0100
0001
0100
0001
,
0110
1001
0110
1001
0110
1000
0010
1000
0001
0100
0001
0100
0010
1000
0001
0100
,
1001
0100
0010
0001
0010
0100
1000
0010
0100
0001
0010
0100
0010
1000
0100
0001
,
0010
0100
1000
0010
0100
1000
0100
0010
0001
0000
0100
0000
0010
0000
1000
0000
,
0100
1000
0100
0010
0100
0001
0010
0100
1000
0001
0010
0100
0010
0100
1000
0010
,
0100
0001
0010
0100
1000
0001
0010
0100
1000
0000
0010
0000
0100
0000
0001
0000
,
1000
0100
1000
0010
1000
0001
1000
0010
1000
0100
1000
0010
1000
0100
1000
0001
,
1000
0010
1000
0001
1000
0100
1000
0010
0001
0000
0010
0000
0100
0000
1000
0000
,
0001
0010
0001
1000
0001
0100
0001
0010
0001
1000
0001
0100
0001
1000
0001
0010
,
0001
0100
0001
0010
0001
1000
0001
0100
0001
0000
0010
0000
0100
0000
1000
0000
,
2002
0000
0000
0000
0110
3003
1000
0001
,
0010
0100
1000
0001
0110
0010
1000
0001
,
1101
1001
0100
0001
0110
0100
1000
0010
,
2200
0000
0000
0000
0000
0000
0000
3300
0022
0000
0000
0000
0000
0000
0000
0033
,
2002
0000
0000
0000
0000
0000
0000
0000
0000
0000
0000
0000
0000
0000
0000
0000
0000
0000
0000
0000
0000
0000
0000
0000
0000
0000
0000
0000
0000
0000
0000
3003
0110
0000
0000
0000
0000
0000
0000
0000
0010
0000
0000
0000
0000
0000
0000
0000
0100
0000
0000
0000
0000
0000
0000
0000
0001
0000
0000
0000
0000
0000
0000
0000
,
2020
0000
0000
0000
0000
0000
0000
3030
2200
0000
0000
0000
0000
0000
0000
3300
,
0202
0000
0000
0000
0000
0303
0000
0000
0100
0000
0000
0000
0100
0000
0000
0000
0100
0000
0000
0000
0100
0000
0000
0000
0110
0000
0000
0000
0101
0000
0000
0000
,
1100
0000
0101
0000
0110
0000
1100
0000
0001
0100
0010
1000
0220
0000
0330
0000
,
1000
0100
0010
0001
1100
0001
0010
0100
1000
0010
0100
1000
0011
0100
0010
0100
,
0001
0010
1000
0100
0011
0100
0001
0010
1000
0100
0001
0010
1001
0100
0010
0100
,
2020
0000
0000
3030
0001
0010
0100
1000
0202
0000
0000
0303
1000
0100
0010
0001
,
2200
0000
0000
0000
0000
0000
3300
0000
0001
0000
0010
0000
0100
0000
0010
0000
0001
0000
1000
0000
0100
0000
1000
0000
0022
0000
0000
0000
0000
0033
0000
0000
,
0100
0010
0100
1000
0011
0100
0010
1000
0001
0010
0100
0010
1001
0100
1000
0100
,
0010
0100
1000
0100
0011
0100
0010
1000
0100
0001
0010
0100
1001
0100
0010
0001
,
2200
0000
0000
3300
0010
0001
0010
0100
2020
0000
0000
3030
0100
1000
0100
0010
,
0202
0000
0000
0000
0000
0000
0303
0000
0010
0000
0100
0000
1000
0000
0100
0000
0010
0000
0001
0000
0010
0000
0100
0000
0022
0000
0000
0000
0000
0033
0000
0000
,
0100
1000
0100
0010
1001
0100
0010
0001
0100
0010
0100
1000
0011
0100
0010
1000
,
0001
0100
0010
0001
1100
0010
1000
0100
0001
1000
0010
0100
1001
0010
0100
0001
,
0220
0000
0000
0330
0001
1000
0010
1000
0202
0000
0000
0303
0010
0100
0001
0010
,
2200
0000
0000
0000
0000
0000
3300
0000
0010
0000
0001
0000
0100
0000
1000
0000
0100
0000
0010
0000
0100
0000
0001
0000
2020
0000
0000
0000
0000
3030
0000
0000
,
0001
0010
0001
0100
0011
0100
1000
0010
0001
0100
0010
1000
0011
0100
0001
0010
,
1000
0100
0010
0100
1001
0010
0100
0001
1000
0100
1000
0010
1100
0001
0100
0010
,
2002
0000
0000
0000
0000
0000
0000
0000
0000
3003
0000
0000
0010
0000
0000
0100
0000
0000
0001
0000
0000
0010
0000
0000
2200
0000
0000
0000
0000
0000
0000
0000
0000
3300
0000
0000
0011
0000
0000
0100
0000
0000
1000
0000
0100
0000
0010
0000
,
0001
1000
0100
0001
0010
1000
0100
0010
1001
0000
1010
0000
0101
0010
1100
0000
,
0110
0000
1001
0000
0110
1001
0110
0000
1001
0000
0110
0000
1001
0110
1001
0000
,
0000
0000
0200
0000
0000
0000
0000
0000
0000
0000
0000
0000
0000
0000
0000
0000
0000
0000
0000
0000
0000
0000
0000
0000
0000
0000
0000
0000
0000
0000
0000
0000
0000
0000
0000
0000
0000
0000
0000
0000
0000
0000
0000
0000
0000
0000
0000
0000
0000
0000
0000
0000
0000
0000
0000
0000
0000
0000
0000
0000
0000
0000
0000
0300
,
1001
0000
0100
0000
0001
0100
0001
0000
0001
0000
0100
0000
0001
0100
0001
0000
,
0000
0000
0000
0000
0020
0000
0000
0000
0000
0000
0000
0000
0000
0000
0000
0000
0000
0000
0000
0000
0000
0000
0000
0000
0000
0000
0000
0000
0000
0000
0000
0000
0000
0000
0000
0000
0030
0000
0000
0000
0000
0000
0000
0000
0000
0000
0000
0000
2000
0000
0000
0000
0000
0000
0000
0000
0000
0000
0000
0000
0000
0000
0000
0000
3000
0000
0000
0000
0000
0000
0000
0000
0200
0000
0000
0000
0000
0000
0000
0000
0000
0000
0000
0000
0000
0000
0000
0300
0000
0000
0000
0000
0000
0000
0000
0000
0000
0000
0000
0000
0002
0000
0000
0000
0000
0000
0000
0000
0000
0000
0000
0000
0000
0000
0000
0000
0000
0000
0000
0000
0000
0000
0000
0000
0000
0000
0000
0000
0000
0000
0000
0000
0000
0000
0000
0000
0000
0000
0000
0000
0000
0000
0000
0000
0000
0000
0000
0000
0000
0000
0000
0000
0000
0000
0000
0000
0000
0000
0000
0000
0000
0000
0000
0000
0000
0000
0000
0000
0000
0000
0000
0000
0000
0000
0000
0000
0000
0000
0000
0000
0000
0000
0000
0000
0000
0000
0000
0000
0000
0003
0000
0000
,
1100
0000
0000
0000
0000
0000
0000
0000
0010
0000
0000
0000
0000
0000
0000
0000
1000
0000
0000
0000
0010
0000
0000
0000
1000
0000
0000
0000
0000
0000
0000
0000
1000
0000
0000
0000
0000
0000
0000
0000
0010
0000
0000
0000
0000
0000
0000
0000
1000
0000
0000
0000
0010
0000
0000
0000
1000
0000
0000
0100
0000
0000
0000
0010
,
0000
0000
0000
0000
0000
0000
0000
0000
0000
0001
0000
0000
0000
0000
0000
0000
0000
0000
0000
0000
0000
1000
0000
0000
0000
0000
0000
0000
0000
0000
0000
0000
0000
1000
0000
0000
0000
0000
0000
0000
0000
0000
0000
0000
0000
0010
0000
0000
0000
0000
0000
0000
0000
0000
0000
0000
0000
0000
0000
0000
0100
0000
0000
0000
0000
0000
0000
0000
0000
0000
0000
0000
0000
0000
0000
0000
0000
0000
0000
0000
1000
0000
0000
0000
0000
0000
0000
0000
0000
0000
0000
0000
0000
0000
0000
0000
0100
0000
0000
0000
0000
0000
0000
0000
0000
0000
0000
0000
0000
0000
0000
0000
0010
0000
0000
0000
0000
0000
0000
0000
0000
0000
0000
0000
0000
0000
0000
0000
1000
0000
0000
0000
0000
0000
0000
0000
0000
0000
0000
0000
0000
0000
0000
0000
0002
0000
0000
0000
0000
0000
0000
0000
0000
0000
0000
0000
0000
0000
0000
0000
0020
0000
0000
0000
0000
0000
0000
0000
0000
0000
0000
0000
0000
0000
0000
0000
0000
0000
0000
0000
0000
0000
0000
0000
0033
0000
0000
0000
0000
0000
0000
0000
,
1000
0000
1000
0000
0100
1000
0100
0000
0001
0000
0001
0000
0010
0001
0010
0000
,
1000
0000
0000
1000
0000
0000
2000
0000
0000
0000
0000
0000
0000
0000
0000
3000
0100
0000
0000
0100
0000
0000
0200
0000
0000
0000
0000
0000
0000
0000
0000
0300
,
0010
0000
0000
0010
0000
0000
0020
0000
0000
0000
0000
0000
0000
0000
0000
0030
0001
0000
0000
0001
0000
0000
0002
0000
0000
0000
0000
0000
0000
0000
0000
0003
,
0001
0010
0100
1000
0001
0010
0100
1000
0001
0010
0100
1000
0001
0010
0100
1000
,
0001
0010
0100
1000
0001
0010
0100
1000
0001
0010
0100
1000
0001
0010
0100
1000
,
0010
0100
1000
0100
0010
0001
0010
0100
0010
0100
1000
0100
0010
0001
0010
0100
0010
0100
1000
0001
0010
0100
1000
0100
,
0010
0100
0010
0001
1000
0100
0010
0001
0010
0100
0010
0001
0010
0100
1000
0100
0010
0100
1000
0100
0010
0100
0010
0001
,
0000
1000
0000
0100
0000
0010
0000
1000
0000
0100
0000
0010
0000
0001
0000
0010
0000
0100
0000
0001
0000
0010
0000
0100
0000
1000
0000
0100
0000
0010
0000
1000
0000
0100
0000
0010
0000
0001
0000
0010
0000
0100
0000
0001
0000
0010
0000
0100
,
0000
1000
0000
0100
0000
0010
0000
0001
0000
0010
0000
0100
0000
1000
0000
0100
0000
0010
0000
0001
0000
0010
0000
0000
1100
0000
0000
0011
0000
0000
1100
0000
0000
0011
0000
0000
0100
0000
0000
0010
0000
0000
0100
0000
0000
0010
0000
0000
,
0100
1000
0100
1000
0011
0000
0100
1000
0100
1000
0011
0000
0100
1000
0011
0000
,
1000
0100
0010
0001
1010
0000
0101
0000
0001
0010
0100
1000
0101
0000
1010
0000
,
0001
0010
0001
0010
1100
0000
0001
0010
0001
0010
1100
0000
0001
0010
1100
0000
,
0110
1000
0100
0010
1100
0010
0100
1000
0110
0001
0010
0100
0011
0100
0010
0001
,
0100
0010
0100
0010
1001
0000
0100
0010
0100
0010
1001
0000
0100
0010
1001
0000
,
0001
0100
0010
1000
0011
0000
1100
0000
1000
0010
0100
0001
1100
0000
0011
0000
,
0001
0100
0001
0100
1010
0000
0001
0100
0001
0100
1010
0000
0001
0100
1010
0000
,
1001
0010
1000
0001
0110
1000
0010
0100
0001
0000
0100
0000
1100
0011
1100
0011
,
0100
0000
1010
0000
0000
0100
1010
0000
0011
0000
1100
0000
0000
0001
1100
0000
,
0110
0000
1001
0000
0000
0010
1001
0000
1100
0000
0011
0000
0000
0100
0011
0000
,
1010
0000
0101
0000
0000
0010
0101
0000
1001
0000
0110
0000
0000
0001
0110
0000
,
1000
0000
0000
0000
0000
0000
0100
0000
0000
0000
0000
0000
0010
0000
0000
0000
0000
0000
0001
0000
0000
0000
0000
0000
1000
0000
0100
0000
0010
0000
1000
0000
0100
0000
0010
0000
1001
0000
0000
0110
0000
0000
1001
0000
0000
0110
0000
0000
,
0001
0010
0100
0010
0100
1000
0100
0001
0010
1000
0100
0001
0010
0100
0001
0100
,
1000
0000
0100
0000
0010
0000
0100
0000
1000
0000
0100
0000
1000
0000
0010
0000
0001
0010
0100
0000
0010
0000
0001
0000
1000
0000
0100
0000
0010
0000
0001
0000
,
0010
0100
1000
0000
0001
0000
0010
0100
1000
0000
0100
0000
0010
0000
0001
0000
0010
0100
1000
0000
0100
0000
0010
0000
0001
0010
0000
1000
0000
0100
0010
0000
,
0001
0010
0100
0000
1000
0000
0001
0010
0100
0000
0001
0000
1000
0100
0010
0000
0100
0010
0001
0000
1000
0100
0010
0000
0100
0000
0001
0010
0100
0000
0010
0000
,
1001
0000
0100
0010
1001
0000
0010
0100
1001
0000
0100
0010
0100
0000
1001
0000
,
1100
0000
0010
0100
0011
0000
0100
0010
1100
0000
0010
0100
0010
1000
0001
0010
,
1001
0100
0010
0100
1001
0010
0100
0010
1001
0100
0010
0100
1001
0010
0100
0010
,
1001
0100
0010
0100
1001
0010
0100
0010
1001
0100
0010
0100
1001
0010
0100
0010
,
1100
0000
0010
0001
1010
0000
0100
1000
0011
0000
0100
1000
0001
0000
0110
0000
,
1001
0000
0100
0010
0101
0000
0001
1000
0110
0000
0001
0010
0100
1000
0100
0010
,
1100
0010
0001
0010
1100
0001
0010
0001
1100
0010
0001
0010
1100
0001
0010
0100
,
0011
0100
1000
0100
0011
1000
0100
1000
0011
0100
1000
0100
0011
1000
0100
0010
,
0001
0000
1000
0000
0001
0010
0100
0000
1000
0000
0001
0000
1000
0100
0010
0000
,
0000
1001
0010
1001
,
0010
0000
0100
0000
0010
0100
0001
0000
0100
0000
0010
0000
0100
0010
1000
0000
,
0010
0100
0010
1000
0001
0010
0100
0010
0100
0010
1000
0010
1001
0000
0000
0000
,
0100
0001
0100
1000
0100
0010
0100
0001
0100
1000
0100
0001
0100
0010
0100
0001
,
0100
0000
0000
0010
0000
0000
1000
0000
0000
0001
0000
0000
0100
0000
0000
0010
0000
0000
1000
0000
0100
0000
0001
0000
0010
0000
0100
0000
0010
0000
1000
0000
0100
0000
0001
0000
1100
0000
0000
0010
0000
0000
0100
0000
0000
0001
0000
0000
,
0100
0001
0100
1000
0100
0010
0100
0001
0100
1000
0100
0001
0100
0010
0100
0010
,
0100
1000
0100
0001
0100
0010
0100
0000
0100
0000
0100
0000
0100
0010
0100
0022
,
0000
0000
0000
0000
0000
0033
0000
0000
0000
0000
0000
0000
0000
0000
0000
0000
;

//---------------dance-single - Challenging----------------
#NOTES:
     dance-single:
     Challenging:
     Medium:
     9:
     1.000,1.000,1.000,0.511,1.000,1832.000,248.000,126.000,0.000,1.000:
1000
0100
1000
0010
1000
0010
0100
0001
,
0100
0010
1000
0001
0100
0010
0100
0001
,
1000
0100
0010
0001
1000
0010
0100
1000
,
0022
0000
0000
0000
0000
0000
0000
0033
2200
0000
0000
0000
0000
0000
0000
3300
,
2002
0000
0000
0000
,
0000
0000
0000
0000
0000
0000
0000
3003
,
0001
0100
0010
1000
0010
0100
0001
0100
,
0022
0000
0000
0000
0000
0000
0000
0033
2200
0000
0000
0000
0000
0000
0000
3300
,
2002
0000
0000
0000
0000
0000
0000
0000
0000
0000
0000
0000
0000
0000
0000
0000
0000
0000
0000
0000
3003
0000
0000
0000
0000
0000
0000
0000
0000
0000
0000
1001
0000
0000
0000
0000
0000
0000
0000
0000
0000
0000
0000
0000
0000
0000
0000
0000
0000
0000
0000
0000
0000
0000
0000
0000
0000
0000
0000
0000
0000
0000
0000
0000
,
2020
0000
0000
0000
0000
0000
0000
3030
0202
0000
0000
0000
0000
0000
0000
0303
,
0220
0000
0000
0330
0010
0000
0010
0000
0010
0000
0010
0000
0010
0000
0010
0000
,
0010
0010
0010
0110
1010
0011
0110
1010
,
0100
1000
0100
1000
0100
1010
0101
0110
,
1010
0000
1100
0000
0101
0000
0011
0000
1000
0010
0100
0001
0220
0000
0330
0000
,
1000
0010
0100
0010
0100
0001
0010
0001
0100
0010
1000
0100
0010
0100
0010
1000
,
0010
0100
0001
0010
1000
0100
0001
0010
1000
0100
0010
0001
0100
0001
0010
0100
,
2020
0000
0000
3030
0001
0010
0100
1000
0202
0000
0000
0303
0010
0100
0001
1000
,
0220
0000
0000
0000
0000
0000
0330
0000
0001
0000
0100
0000
0010
0000
1000
0000
0100
0000
0001
0000
0100
0000
0010
0000
2200
0000
0000
0000
0000
3300
0000
0000
,
0010
0100
0010
1000
0001
0100
1000
0001
0010
1000
0100
0010
0001
0100
0001
0010
,
1000
0100
0001
0010
0100
0001
1000
0010
0100
0010
1000
0100
0001
0010
0100
0001
,
2200
0000
0000
3300
0010
0100
1000
0100
0022
0000
0000
0033
0100
0010
0001
0100
,
2002
0000
0000
0000
0000
0000
3003
0000
0010
0000
0100
0000
0010
0000
0001
0000
1000
0000
0010
0000
0100
0000
1000
0000
0022
0000
0000
0000
0000
0033
0000
0000
,
1000
0100
0010
1000
0001
0100
1000
0010
0001
0010
0100
0001
1000
0010
0100
0001
,
0100
0010
1000
0100
0001
0010
0100
0001
0100
1000
0010
0100
0010
0100
1000
0001
,
0220
0000
0000
0330
1000
0001
0010
0100
0022
0000
0000
0033
0100
0010
0001
0100
,
2020
0000
0000
0000
0000
0000
3030
0000
0100
0000
0001
0000
0010
0000
0100
0000
0010
0000
1000
0000
0100
0000
1000
0000
0202
0000
0000
0000
0000
0303
0000
0000
,
0010
0001
0100
0010
0100
0010
0001
0100
0010
1000
0100
0010
0001
0100
0001
0010
,
0100
1000
0100
0001
1000
0010
0001
0100
0001
0100
1000
0010
0001
0100
1000
0010
,
2002
0000
0000
3003
0010
0100
0010
1000
0202
0000
0000
0303
1000
0001
0100
0010
,
2200
0000
0000
0000
0000
0000
3300
0000
0001
0000
0010
0000
0100
0000
0010
0000
0001
0000
1000
0000
0010
0000
0100
0000
2020
0000
0000
0000
0000
3030
0000
0000
,
0101
0000
0010
0100
0011
0000
0100
0010
1100
0000
0010
0100
0010
0000
1001
0000
,
0110
0000
1000
0010
0101
0000
0001
0100
1010
0000
0100
0010
0001
1000
0100
0010
,
0001
0010
0100
0010
1000
0100
0010
0100
0001
0010
0100
0010
1000
0100
0010
0100
,
0010
0100
1000
0100
0010
1000
0100
1000
0010
0100
1000
0100
0010
1000
0100
1000
,
0110
0000
0001
0010
1100
0000
1000
0100
0011
0000
1000
0001
1000
0000
0110
0000
,
1001
0000
0100
0001
1010
0000
0010
1000
0101
0000
0010
0100
1000
0100
0001
0010
,
1000
0100
0010
0100
0001
0010
0100
0010
1000
0100
0010
0100
0001
0010
0100
0010
,
0100
0010
0001
0010
0100
0001
0010
0001
0100
0010
0001
0010
0100
0001
0010
0001
,
0100
0010
0100
0010
1001
0000
1000
0100
1000
0100
0011
0000
1000
0100
0011
0000
,
1000
0000
0010
0000
0100
0000
0001
0000
1000
0000
0010
0000
1100
0000
0000
0000
0000
0000
0011
0000
0000
0000
0000
0000
0001
0000
0000
0010
0000
0000
0001
0000
0000
0010
0000
0000
2200
0000
0000
0000
0000
0000
3300
0000
0000
0000
0000
0000
,
0010
0100
0001
0010
1000
0001
0100
1000
0010
0100
1000
0100
0010
0100
0001
0010
,
0100
0001
1000
0100
0001
0010
0100
0001
0010
1000
0100
0010
0001
0100
0001
0010
,
2200
0000
0000
3300
0010
0001
0010
0100
0022
0000
0000
0033
0100
1000
0100
0010
,
2002
0000
0000
0000
0000
0000
3003
0000
0010
0000
0100
0000
1000
0000
0100
0000
0010
0000
0001
0000
0100
0000
1000
0000
0220
0000
0000
0000
0000
0330
0000
0000
,
0001
0010
1000
0001
0100
0010
1000
0001
0010
1000
0100
0010
0001
0100
0010
0100
,
0001
0010
1000
0100
0010
0100
0001
0010
1000
0100
1000
0010
0100
0010
0100
1000
,
0202
0000
0000
0303
0010
1000
0001
0100
2020
0000
0000
3030
0100
0001
1000
0010
,
2002
0000
0000
0000
0000
0000
3003
0000
0010
0000
0001
0000
0010
0000
0100
0000
1000
0000
0001
0000
0010
0000
1000
0000
0202
0000
0000
0000
0000
0303
0000
0000
,
1010
0000
0100
0010
1001
0000
0010
0100
1001
0000
0100
0010
0001
0000
1010
0000
,
0101
0000
1000
0001
0110
0000
0001
1000
0110
0000
0001
1000
0100
0010
0001
0010
,
0100
0001
0010
0100
0010
1000
0100
0010
0100
0010
0100
1000
0010
0100
0010
1000
,
0001
1000
0100
0010
1000
0001
0010
0100
0001
0100
0010
0001
1000
0010
0100
1000
,
0011
0000
0100
1000
0011
0000
1000
0100
0011
0000
0100
1000
0100
0000
0011
0000
,
1100
0000
0010
0001
1100
0000
0001
0010
1100
0000
0010
0001
0010
0100
1000
0100
,
0010
0100
0010
0100
0001
0100
0010
0100
0010
0100
0010
0100
0001
1000
0100
0010
,
0100
0010
0100
0010
1000
0010
0100
0010
0100
0010
0100
0010
1000
0001
0010
0100
,
1000
0001
1000
0001
0110
0000
1000
0001
1000
0001
0110
0000
1000
0001
0110
0000
,
0001
0010
0001
0010
1100
0000
0011
0000
1000
0100
1000
0100
0011
0000
1100
0000
,
0001
0100
0001
0100
1010
0000
0001
0100
0001
0100
1010
0000
0001
0100
1010
0000
,
0001
1000
0100
1000
0010
1000
0100
0010
1000
0001
0010
0001
0100
0001
0010
0100
,
1000
0010
1000
0010
0101
0000
1000
0010
1000
0010
0101
0000
1000
0010
0101
0000
,
0100
0010
0100
0010
1100
0000
0011
0000
0010
0100
0010
0100
0011
0000
1100
0000
,
0001
1000
0001
1000
0110
0000
0001
1000
0001
1000
0110
0000
0001
1000
0110
0000
,
0001
0010
0100
1000
0100
0010
0100
0001
1000
0000
0000
0011
1100
0011
1100
0011
,
0100
0000
0100
0000
0010
0100
0010
0000
0100
0000
0100
0000
0010
0100
0010
0000
,
0000
1001
0100
1001
,
0010
0000
0010
0000
0100
0010
0100
0000
0010
0000
0010
0000
0100
0010
0100
0000
,
0000
0000
0000
0000
0000
0000
1001
0000
0000
1000
0100
0010
0001
0000
0000
0000
0000
0000
1001
0000
0000
0000
0000
0000
,
1000
0000
1000
0000
0001
1000
0001
0000
1000
0000
1000
0000
0001
1000
0001
0000
,
0000
1100
1010
0011
,
0100
0000
0100
0000
1000
0100
1000
0000
0010
0000
0010
0000
0001
0010
0001
0000
,
1100
0011
0000
0011
1010
0101
0000
0101
,
0110
1001
0000
1001
0110
1001
0000
1001
,
1100
0011
0000
0011
1010
0101
0000
0101
,
1001
0000
0100
0010
0100
0010
1000
0100
0010
0001
0100
0010
1000
0100
0010
0001
,
1000
0010
1000
0010
1000
0010
1000
0010
0100
0010
0100
0010
0100
0010
0100
0010
,
0001
0010
0001
0010
0001
0010
0001
0010
0001
1000
0001
1000
0001
1000
0001
1000
,
0100
1000
0100
1000
0100
1000
0100
1000
0100
0001
0100
0001
0100
0001
0100
0001
,
0100
0001
1000
0010
0100
1000
0010
1000
0001
0100
0001
0100
0010
1000
0001
0100
,
1001
0100
0010
0001
0010
0100
1000
0010
0100
0001
0010
0100
0010
1000
0100
0001
,
0010
0100
1000
0010
0100
1000
0100
0010
0001
0000
0100
0000
0010
0000
1000
0000
,
0100
1000
0100
0010
0100
0001
0010
0100
1000
0001
0010
0100
0010
0100
1000
0010
,
0100
0001
0010
0100
1000
0001
0010
0100
1000
0000
0010
0000
0100
0000
0001
0000
,
0001
0010
0100
1000
0100
0010
0001
0100
0010
1000
0100
0010
0100
0001
0010
1000
,
0100
0010
0001
0100
0010
0001
0010
0100
1000
0000
0010
0000
0100
0000
0001
0000
,
0100
1000
0100
0010
0100
0001
0010
0100
1000
0001
0010
0100
0010
0100
1000
0010
,
0100
0001
0010
0100
1000
0001
0010
0100
1000
0000
0010
0000
0100
0000
0001
0000
,
2002
0000
0000
0000
0000
0000
0000
0000
0000
0000
0000
0000
0000
3003
0000
0000
0110
0000
0000
0000
0000
0000
0000
0000
1000
0000
0000
0000
0001
0000
0000
0000
,
0010
0100
1000
0001
0110
0010
1000
0001
,
1101
1001
0100
0001
0110
0100
1000
0010
,
2200
0000
0000
0000
0000
0000
0000
3300
0022
0000
0000
0000
0000
0000
0000
0033
,
2002
0000
0000
0000
0000
0000
0000
0000
0000
0000
0000
0000
0000
0000
0000
0000
0000
0000
0000
0000
0000
0000
0000
0000
0000
0000
0000
0000
0000
0000
0000
3003
0110
0000
0000
0000
0000
0000
0000
0000
0000
0000
0000
0000
0000
0000
0000
0000
0000
0000
0000
0000
0000
0000
0000
0000
0000
0000
0000
0000
0000
0000
0000
0000
,
2020
0000
0000
0000
0000
0000
0000
3030
2200
0000
0000
0000
0000
0000
0000
3300
,
0202
0000
0000
0000
0000
0303
0000
0000
0100
0000
0000
0000
0100
0000
0000
0000
0100
0000
0000
0000
0100
0000
0000
0000
0110
0000
0000
0000
0101
0000
0000
0000
,
1100
0000
0101
0000
0110
0000
1100
0000
0001
0100
0010
1000
0220
0000
0330
0000
,
1000
0100
0010
0001
1000
0001
0010
0100
1000
0010
0100
1000
0001
0100
0010
0100
,
0001
0010
1000
0100
0010
0100
0001
0010
1000
0100
0001
0010
1000
0100
0010
0100
,
2020
0000
0000
3030
0001
0010
0100
1000
0202
0000
0000
0303
1000
0100
0010
0001
,
2200
0000
0000
0000
0000
0000
3300
0000
0001
0000
0010
0000
0100
0000
0010
0000
0001
0000
1000
0000
0100
0000
1000
0000
0022
0000
0000
0000
0000
0033
0000
0000
,
0100
0010
0100
1000
0001
0100
0010
1000
0001
0010
0100
0010
0001
0100
1000
0100
,
0010
0100
1000
0100
0001
0100
0010
1000
0100
0001
0010
0100
1000
0100
0010
0001
,
2200
0000
0000
3300
0010
0001
0010
0100
2020
0000
0000
3030
0100
1000
0100
0010
,
0202
0000
0000
0000
0000
0000
0303
0000
0010
0000
0100
0000
1000
0000
0100
0000
0010
0000
0001
0000
0010
0000
0100
0000
0022
0000
0000
0000
0000
0033
0000
0000
,
0100
1000
0100
0010
1000
0100
0010
0001
0100
0010
0100
1000
0001
0100
0010
1000
,
0001
0100
0010
0001
0100
0010
1000
0100
0001
1000
0010
0100
1000
0010
0100
0001
,
0220
0000
0000
0330
0001
1000
0010
1000
0202
0000
0000
0303
0010
0100
0001
0010
,
2200
0000
0000
0000
0000
0000
3300
0000
0010
0000
0001
0000
0100
0000
1000
0000
0100
0000
0010
0000
0100
0000
0001
0000
2020
0000
0000
0000
0000
3030
0000
0000
,
0001
0010
0001
0100
0010
0100
1000
0010
0001
0100
0010
1000
0010
0100
0001
0010
,
1000
0100
0010
0100
0001
0010
0100
0001
1000
0100
1000
0010
0100
0001
0100
0010
,
2002
0000
0000
3003
0010
0100
0001
0010
2200
0000
0000
3300
0001
0100
1000
0010
,
0001
1000
0100
0001
0010
1000
0100
0010
0001
0000
1000
0000
0100
0010
1001
0000
,
0110
0000
1001
0000
0110
1001
0110
0000
1001
0000
0110
0000
1001
0110
1001
0000
,
0000
0000
0200
0000
0000
0000
0000
0000
0000
0000
0000
0000
0000
0000
0000
0000
0000
0000
0000
0000
0000
0000
0000
0000
0000
0000
0000
0000
0000
0000
0000
0000
0000
0000
0000
0000
0000
0000
0000
0000
0000
0000
0000
0000
0000
0000
0000
0000
0000
0000
0000
0000
0000
0000
0000
0000
0000
0000
0000
0000
0000
0000
0000
0300
,
1001
0000
0100
0000
0001
0100
0001
0000
0001
0000
0100
0000
0001
0100
0001
0000
,
0000
0000
0000
0000
0020
0000
0000
0000
0000
0000
0000
0000
0000
0000
0000
0000
0000
0000
0000
0000
0000
0000
0000
0000
0000
0000
0000
0000
0000
0000
0000
0000
0000
0000
0000
0000
0030
0000
0000
0000
0000
0000
0000
0000
0000
0000
0000
0000
2000
0000
0000
0000
0000
0000
0000
0000
0000
0000
0000
0000
0000
0000
0000
0000
3000
0000
0000
0000
0000
0000
0000
0000
0200
0000
0000
0000
0000
0000
0000
0000
0000
0000
0000
0000
0000
0000
0000
0300
0000
0000
0000
0000
0000
0000
0000
0000
0000
0000
0000
0000
0002
0000
0000
0000
0000
0000
0000
0000
0000
0000
0000
0000
0000
0000
0000
0000
0000
0000
0000
0000
0000
0000
0000
0000
0000
0000
0000
0000
0000
0000
0000
0000
0000
0000
0000
0000
0000
0000
0000
0000
0000
0000
0000
0000
0000
0000
0000
0000
0000
0000
0000
0000
0000
0000
0000
0000
0000
0000
0000
0000
0000
0000
0000
0000
0000
0000
0000
0000
0000
0000
0000
0000
0000
0000
0000
0000
0000
0000
0000
0000
0000
0000
0000
0000
0000
0000
0000
0000
0000
0003
0000
0000
,
1100
0000
0000
0000
0000
0000
0000
0000
0010
0000
0000
0000
0000
0000
0000
0000
1000
0000
0000
0000
0010
0000
0000
0000
1000
0000
0000
0000
0000
0000
0000
0000
1000
0000
0000
0000
0000
0000
0000
0000
0010
0000
0000
0000
0000
0000
0000
0000
1000
0000
0000
0000
0010
0000
0000
0000
1000
0000
0000
0100
0000
0000
0000
0010
,
0000
0000
0000
0000
0000
0000
0000
0000
0000
0001
0000
0000
0000
0000
0000
0000
0000
0000
0000
0000
0000
1000
0000
0000
0000
0000
0000
0000
0000
0000
0000
0000
0000
1000
0000
0000
0000
0000
0000
0000
0000
0000
0000
0000
0000
0010
0000
0000
0000
0000
0000
0000
0000
0000
0000
0000
0000
0000
0000
0000
0100
0000
0000
0000
0000
0000
0000
0000
0000
0000
0000
0000
0000
0000
0000
0000
0000
0000
0000
0000
1000
0000
0000
0000
0000
0000
0000
0000
0000
0000
0000
0000
0000
0000
0000
0000
0100
0000
0000
0000
0000
0000
0000
0000
0000
0000
0000
0000
0000
0000
0000
0000
0010
0000
0000
0000
0000
0000
0000
0000
0000
0000
0000
0000
0000
0000
0000
0000
1000
0000
0000
0000
0000
0000
0000
0000
0000
0000
0000
0000
0000
0000
0000
0000
0002
0000
0000
0000
0000
0000
0000
0000
0000
0000
0000
0000
0000
0000
0000
0000
0000
0000
0000
0000
0000
0000
0000
0000
0000
0000
0000
0000
0000
0000
0000
0000
0000
0000
0000
0000
0000
0000
0000
0000
0003
0000
0000
0000
0000
0000
0000
0000
,
1000
0000
1000
0000
0100
1000
0100
0000
0001
0000
0001
0000
0010
0001
0010
0000
,
1000
0000
0000
1000
0000
0000
2000
0000
0000
0000
0000
0000
0000
0000
0000
3000
0100
0000
0000
0100
0000
0000
0200
0000
0000
0000
0000
0000
0000
0000
0000
0300
,
0010
0000
0000
0010
0000
0000
0020
0000
0000
0000
0000
0000
0000
0000
0000
0030
0001
0000
0000
0001
0000
0000
0002
0000
0000
0000
0000
0000
0000
0000
0000
0003
,
0001
0010
0100
1000
0001
0010
0100
1000
0001
0010
0100
1000
0001
0010
0100
1000
,
0001
0010
0100
1000
0001
0010
0100
1000
0001
0010
0100
1000
0001
0010
0100
1000
,
0100
0010
0100
1000
0100
0010
0100
0010
0001
0010
0100
0001
0010
0100
1000
0100
,
0010
0001
0010
0100
0010
0100
1000
0001
0010
0100
1000
0100
0010
0001
0100
0010
,
1000
0100
0010
1000
0100
0010
0001
0010
0100
0001
0010
0100
1000
0100
0010
0001
,
0010
0100
1000
0100
0010
0001
0010
0001
1100
0011
1100
0011
0100
0010
0100
0010
,
0100
1000
0100
1000
0011
0000
0100
1000
0100
1000
0011
0000
0100
1000
0011
0000
,
1000
0100
0010
0001
1010
0000
0101
0000
0001
0010
0100
1000
0101
0000
1010
0000
,
0001
0010
0001
0010
1100
0000
0001
0010
0001
0010
1100
0000
0001
0010
1100
0000
,
0100
1000
0100
0010
1000
0010
0100
1000
0010
0001
0010
0100
0001
0100
0010
0001
,
0100
0010
0100
0010
1001
0000
0100
0010
0100
0010
1001
0000
0100
0010
1001
0000
,
0001
0100
0010
1000
0011
0000
1100
0000
1000
0010
0100
0001
1100
0000
0011
0000
,
0001
0100
0001
0100
1010
0000
0001
0100
0001
0100
1010
0000
0001
0100
1010
0000
,
0001
0010
1000
0001
0100
1000
0010
0100
0001
0000
0100
0000
1100
0011
1100
0011
,
0100
1010
0000
1010
0011
1100
0000
1100
,
0110
1001
0000
1001
1100
0011
0000
0011
,
1010
0101
0000
0101
1001
0110
0000
0110
,
1000
0000
0100
0000
0010
0000
0001
0000
0100
0010
0100
0010
1001
0110
1001
0110
,
0001
0010
0100
0010
0100
1000
0100
0001
0010
1000
0100
0001
0010
0100
0001
0100
,
1000
0100
0010
0100
1000
0100
1000
0010
0001
0100
0010
0001
1000
0100
0010
0001
,
0010
1000
0001
0010
1000
0100
0010
0001
0010
1000
0100
0010
0001
1000
0100
0010
,
0001
0100
1000
0001
0100
0001
1000
0010
0100
0001
1000
0010
0100
0001
0100
0010
,
1001
0000
0100
0010
1001
0000
0010
0100
1001
0000
0100
0010
0100
0000
1001
0000
,
1100
0000
0010
0100
0011
0000
0100
0010
1100
0000
0010
0100
0010
1000
0001
0010
,
1000
0100
0010
0100
0001
0010
0100
0010
1000
0100
0010
0100
0001
0010
0100
0010
,
1000
0100
0010
0100
0001
0010
0100
0010
1000
0100
0010
0100
0001
0010
0100
0010
,
1100
0000
0010
0001
1010
0000
0100
1000
0011
0000
0100
1000
0001
0000
0110
0000
,
1001
0000
0100
0010
0101
0000
0001
1000
0110
0000
0001
0010
0100
1000
0100
0010
,
0100
0010
0001
0010
0100
0001
0010
0001
1000
0010
0001
0010
1000
0001
0010
0100
,
0010
0100
1000
0100
0010
1000
0100
1000
0001
0100
1000
0100
0001
1000
0100
0010
,
0001
0000
1000
0000
0001
0010
0100
0000
1000
0000
0001
0000
1000
0100
0010
0000
,
0000
1001
0010
1001
,
0010
0000
0100
0000
0010
0100
0001
0000
0100
0000
0010
0000
0100
0010
1000
0000
,
0010
0100
0010
1000
0001
0010
0100
0010
0100
0010
1000
0010
1001
0000
0000
0000
,
0100
0001
0100
1000
0100
0010
0100
0001
0100
1000
0100
0001
0100
0010
0100
0001
,
0100
0000
0000
0010
0000
0000
1000
0000
0000
0001
0000
0000
0100
0000
0000
0010
0000
0000
1000
0000
0100
0000
0001
0000
0010
0000
0100
0000
0010
0000
1000
0000
0100
0000
0001
0000
1100
0000
0000
0010
0000
0000
0100
0000
0000
0001
0000
0000
,
0100
0001
0100
1000
0100
0010
0100
0001
0100
1000
0100
0001
0100
0010
0100
0010
,
0100
1000
0100
0001
0100
0010
0100
0000
0100
0000
0100
0000
0100
0010
0100
0022
,
0000
0000
0000
0000
0000
0033
0000
0000
0000
0000
0000
0000
0000
0000
0000
0000
;

//---------------dance-single - Tricky----------------
#NOTES:
     dance-single:
     Tricky:
     Easy:
     6:
     0.803,1.000,0.754,0.653,0.227,1040.000,186.000,161.000,0.000,0.000:
1000
0100
0000
0010
0000
0100
0000
0010
,
0000
1000
0000
0100
0000
0010
0000
0001
,
0000
1000
0000
0010
0000
0100
0000
0010
,
0002
0000
0000
0000
0000
0000
0000
0003
0200
0000
0000
0000
0000
0000
0000
0300
,
0020
0000
0000
0000
,
0000
0000
0000
0000
0000
0000
0000
0030
,
0000
1000
0000
0010
0000
0100
0000
0010
,
0002
0000
0000
0000
0000
0000
0000
0003
0200
0000
0000
0000
0000
0000
0000
0300
,
0020
0000
0000
0000
0000
0000
0000
0000
0000
0000
0000
0000
0000
0000
0000
0000
0000
0000
0000
0000
0030
0000
0000
0000
0000
0000
0000
0000
0000
0000
0000
1001
0000
0000
0000
0000
0000
0000
0000
0000
0000
0000
0000
0000
0000
0000
0000
0000
0000
0000
0000
0000
0000
0000
0000
0000
0000
0000
0000
0000
0000
0000
0000
0000
,
0200
0000
0000
0000
0000
0000
0000
0300
0002
0000
0000
0000
0000
0000
0000
0003
,
0020
0000
0000
0030
0010
0000
0000
0000
0010
0000
0000
0000
0010
0000
0000
0000
,
0010
0010
1010
0011
,
0100
0001
0010
0011
,
1010
0000
0110
0000
1000
0100
0022
0033
,
0100
1000
0010
0100
0010
0001
1000
0001
,
0010
0100
0001
1000
0100
1000
0010
0100
,
2020
0000
0000
3030
0001
0000
0010
0000
0202
0000
0000
0303
1000
0000
0001
0000
,
0220
0000
0000
0000
0000
0000
0330
0000
1000
0000
0000
0000
0010
0000
0000
0000
0100
0000
0000
0000
0001
0000
0000
0000
2200
0000
0000
0000
0000
3300
0000
0000
,
0010
0100
0001
0010
0100
0010
1000
0100
,
1000
0001
0010
1000
0100
0001
0010
0001
,
2200
0000
0000
3300
0010
0000
0100
0000
0022
0000
0000
0033
0100
0000
0010
0000
,
2002
0000
0000
0000
0000
0000
3003
0000
0100
0000
0000
0000
0001
0000
0000
0000
0010
0000
0000
0000
0100
0000
0000
0000
0022
0000
0000
0000
0000
0033
0000
0000
,
0100
1000
0010
0100
0010
0001
1000
0010
,
0100
1000
0001
0100
0010
0001
0100
1000
,
0220
0000
0000
0330
0001
0000
0100
0000
0022
0000
0000
0033
1000
0000
0001
0000
,
2020
0000
0000
0000
0000
0000
3030
0000
0100
0000
0000
0000
0010
0000
0000
0000
1000
0000
0000
0000
0010
0000
0000
0000
0202
0000
0000
0000
0000
0303
0000
0000
,
0010
1000
0100
0001
0100
0010
1000
0100
,
0010
1000
0001
0100
0010
0100
1000
0010
,
2002
0000
0000
3003
0100
0000
0010
0000
0202
0000
0000
0303
1000
0000
0001
0000
,
2200
0000
0000
0000
0000
0000
3300
0000
0010
0000
0000
0000
1000
0000
0000
0000
0001
0000
0000
0000
0100
0000
0000
0000
2020
0000
0000
0000
0000
3030
0000
0000
,
0101
0000
0011
0000
1100
0000
0000
1001
,
0110
0000
0101
0000
1010
0000
0000
0011
,
0200
0300
2000
3000
0200
0300
0020
0030
,
0002
0003
0020
0030
0200
0300
2000
3000
,
0110
0000
1100
0000
0011
0000
0000
0110
,
1001
0000
1010
0000
0101
0000
0000
1100
,
0020
0030
0002
0003
0020
0030
0200
0300
,
2000
3000
0200
0300
0020
0030
0002
0003
,
0100
0010
1001
0100
1000
0011
0100
0011
,
1000
0010
0100
0001
1100
0000
0011
0000
0010
0000
0001
0000
2200
0000
3300
0000
,
0010
0100
0001
1000
0010
0100
1000
0001
,
0100
0010
1000
0010
1000
0001
0100
0010
,
2200
0000
0000
3300
0001
0000
0100
0000
0022
0000
0000
0033
1000
0000
0010
0000
,
2002
0000
0000
0000
0000
0000
3003
0000
0100
0000
0000
0000
0010
0000
0000
0000
0001
0000
0000
0000
1000
0000
0000
0000
0220
0000
0000
0000
0000
0330
0000
0000
,
0001
1000
0100
0010
0001
0100
0001
0010
,
1000
0010
0100
1000
0001
0100
1000
0010
,
0202
0000
0000
0303
1000
0000
0100
0000
2020
0000
0000
3030
0001
0000
0010
0000
,
2002
0000
0000
0000
0000
0000
3003
0000
0100
0000
0000
0000
0010
0000
0000
0000
0001
0000
0000
0000
0010
0000
0000
0000
0202
0000
0000
0000
0000
0303
0000
0000
,
1010
0000
1001
0000
1001
0000
0000
1010
,
0101
0000
0110
0000
0110
0000
0000
1010
,
0002
0003
0200
0300
0002
0003
2000
3000
,
0020
0030
2000
3000
0002
0003
0200
0300
,
0011
0000
0011
0000
0011
0000
0000
0011
,
1100
0000
1100
0000
1100
0000
0000
1100
,
2000
3000
0020
0030
2000
3000
0002
0003
,
0200
0300
0002
0003
2000
3000
0020
0030
,
1000
0001
0110
0000
1000
0110
0000
0110
,
0001
0010
1100
0011
1000
0100
0011
1100
,
0001
0100
1010
0000
0001
1010
0000
1010
,
0001
0010
0001
0100
0010
1000
0010
0100
,
1000
0010
0101
0000
1000
0101
0000
0101
,
0100
0010
1100
0011
0010
0100
0011
1100
,
0001
1000
0110
0000
0001
0110
0000
0110
,
0001
0000
0100
0000
0001
0000
0010
0000
1000
0000
0000
0001
1000
0001
1000
0001
,
0100
0000
0100
0000
0010
0100
0010
0000
0100
0000
0100
0000
0010
0100
0010
0000
,
0000
1001
0100
1001
,
0010
0000
0010
0000
0100
0010
0100
0000
0010
0000
0010
0000
0100
0010
0100
0000
,
0000
0000
0000
0000
1001
0000
0100
0010
0001
0000
0000
0000
1001
0000
0000
0000
,
1000
0000
1000
0000
0001
1000
0001
0000
1000
0000
1000
0000
0001
1000
0001
0000
,
0000
1100
1010
0011
,
0100
0000
0100
0000
1000
0100
1000
0000
0010
0000
0010
0000
0001
0010
0001
0000
,
0100
0011
0000
0011
1000
0101
0000
0101
,
0010
1001
0000
1001
0100
1001
0000
1001
,
0100
0011
0000
0011
1000
0101
0000
0101
,
1000
0000
0100
0010
0100
0010
1000
0000
0001
0000
0010
0000
0100
0000
0001
0000
,
1000
0010
1000
0010
0100
0010
0100
0010
,
0001
0010
0001
0010
0001
1000
0001
1000
,
0100
1000
0100
1000
0100
0001
0100
0001
,
0100
0001
1000
0010
0100
1000
0010
0000
0100
0000
0001
0000
1000
0000
0010
0000
,
1001
0100
0001
0010
0100
0001
0100
1000
,
0100
0001
0010
0100
0001
0000
0010
0000
,
0001
0010
1000
0100
0010
1000
0010
0001
,
0010
1000
0100
0010
1000
0000
0100
0000
,
0100
0001
0010
1000
0001
0010
0001
0100
,
0001
0010
1000
0001
0010
0000
1000
0000
,
0010
1000
0100
0001
1000
0100
1000
0010
,
1000
0100
0001
1000
0100
0000
0001
0000
,
0020
0000
0000
0000
0000
0000
0000
0000
0000
0000
0000
0000
0000
0030
0000
0000
1100
0000
0000
0000
0000
0000
0000
0000
0000
0000
0000
0000
0000
0000
0000
0000
,
0100
0010
0110
0000
,
1001
1001
0000
0000
0110
0000
0000
0000
,
2000
0000
0000
0000
0000
0000
0000
3000
0200
0000
0000
0000
0000
0000
0000
0300
,
0002
0000
0000
0000
0000
0000
0000
0000
0000
0000
0000
0000
0000
0000
0000
0000
0000
0000
0000
0000
0000
0000
0000
0000
0000
0000
0000
0000
0000
0000
0000
0003
1100
0000
0000
0000
0000
0000
0000
0000
0000
0000
0000
0000
0000
0000
0000
0000
0000
0000
0000
0000
0000
0000
0000
0000
0000
0000
0000
0000
0000
0000
0000
0000
,
0020
0000
0000
0000
0000
0000
0000
0030
2000
0000
0000
0000
0000
0000
0000
3000
,
0200
0000
0000
0000
0000
0300
0000
0000
0100
0000
0000
0000
0000
0000
0000
0000
0100
0000
0000
0000
0000
0000
0000
0000
0101
0000
0000
0000
0000
0000
0000
0000
,
1100
0000
0110
0000
0001
0010
2200
3300
,
0001
0100
0010
0100
0001
0010
1000
0100
,
1000
0001
0100
0010
1000
0001
0010
0100
,
2020
0000
0000
3030
0001
0000
0010
0000
0202
0000
0000
0303
1000
0000
0001
0000
,
2200
0000
0000
0000
0000
0000
3300
0000
0010
0000
0000
0000
0100
0000
0000
0000
0010
0000
0000
0000
1000
0000
0000
0000
0022
0000
0000
0000
0000
0033
0000
0000
,
1000
0010
0100
0001
0010
0001
1000
0010
,
0100
0001
1000
0100
1000
0001
0100
0010
,
2200
0000
0000
3300
0010
0000
0001
0000
2020
0000
0000
3030
0001
0000
1000
0000
,
0202
0000
0000
0000
0000
0000
0303
0000
1000
0000
0000
0000
0010
0000
0000
0000
0001
0000
0000
0000
0100
0000
0000
0000
0022
0000
0000
0000
0000
0033
0000
0000
,
1000
0001
0100
0010
0100
0001
1000
0100
,
0001
1000
0010
0100
0010
0001
0100
1000
,
0220
0000
0000
0330
0001
0000
1000
0000
0202
0000
0000
0303
0010
0000
0001
0000
,
2200
0000
0000
0000
0000
0000
3300
0000
0010
0000
0000
0000
1000
0000
0000
0000
0010
0000
0000
0000
0100
0000
0000
0000
2020
0000
0000
0000
0000
3030
0000
0000
,
0001
0100
0010
0100
0001
1000
0010
0100
,
1000
0001
0010
0100
0001
1000
0010
0100
,
2002
0000
0000
3003
0010
0000
0001
0000
2200
0000
0000
3300
0010
0000
1000
0100
,
0001
0010
1000
0100
0001
0100
0010
1001
,
0010
0000
1000
0000
0100
0001
0010
0000
1000
0000
0010
0000
0001
0010
1000
0000
,
0000
0000
0200
0000
0000
0000
0000
0000
0000
0000
0000
0000
0000
0000
0000
0000
0000
0000
0000
0000
0000
0000
0000
0000
0000
0000
0000
0000
0000
0000
0000
0000
0000
0000
0000
0000
0000
0000
0000
0000
0000
0000
0000
0000
0000
0000
0000
0000
0000
0000
0000
0000
0000
0000
0000
0000
0000
0000
0000
0000
0000
0000
0000
0300
,
0001
0000
0100
0000
0001
0100
0001
0000
0001
0000
0100
0000
0001
0100
0001
0000
,
0000
0000
0000
0000
0020
0000
0000
0000
0000
0000
0000
0000
0000
0000
0000
0000
0000
0000
0000
0000
0000
0000
0000
0000
0000
0000
0000
0000
0000
0000
0000
0000
0000
0000
0000
0000
0030
0000
0000
0000
0000
0000
0000
0000
0000
0000
0000
0000
2000
0000
0000
0000
0000
0000
0000
0000
0000
0000
0000
0000
0000
0000
0000
0000
0000
0000
0000
0000
0000
0000
0000
0000
0000
0000
0000
0000
0000
0000
0000
0000
0000
0000
0000
0000
0000
0000
0000
3000
0000
0000
0000
0000
0000
0000
0000
0000
0000
0000
0000
0000
0002
0000
0000
0000
0000
0000
0000
0000
0000
0000
0000
0000
0000
0000
0000
0000
0000
0000
0000
0000
0000
0000
0000
0000
0000
0000
0000
0000
0000
0000
0000
0000
0000
0000
0000
0000
0000
0000
0000
0000
0000
0000
0000
0000
0000
0000
0000
0000
0000
0000
0000
0000
0000
0000
0000
0000
0000
0000
0000
0000
0000
0000
0000
0000
0000
0000
0000
0000
0000
0000
0000
0000
0000
0000
0000
0000
0000
0000
0000
0000
0000
0000
0000
0000
0000
0000
0000
0000
0000
0003
0000
0000
,
1000
0000
0000
0000
0000
0000
0000
0000
0010
0000
0000
0000
0000
0000
0000
0000
1000
0000
0000
0000
0010
0000
0000
0000
1000
0000
0000
0000
0000
0000
0000
0000
1000
0000
0000
0000
0000
0000
0000
0000
0010
0000
0000
0000
0000
0000
0000
0000
1000
0000
0000
0000
0010
0000
0000
0000
1000
0000
0000
0000
0000
0000
0000
0010
,
0000
0000
0000
0000
0000
0000
0000
0000
0000
0000
0000
0000
0000
0000
0000
0000
0000
0000
0000
0000
0000
1000
0000
0000
0000
0000
0000
0000
0000
0000
0000
0000
0000
0000
0000
0000
0000
0000
0000
0000
0000
0000
0000
0000
0000
0010
0000
0000
0000
0000
0000
0000
0000
0000
0000
0000
0000
0000
0000
0000
0000
0000
0000
0000
0000
0000
0000
0000
0000
1000
0000
0000
0000
0000
0000
0000
0000
0000
0000
0000
0000
0000
0000
0000
0000
0000
0000
0000
0000
0000
0000
0000
0000
0000
0000
0000
0100
0000
0000
0000
0000
0000
0000
0000
0000
0000
0000
0000
0000
0000
0000
0000
0000
0000
0000
0000
0000
0000
0000
0000
0010
0000
0000
0000
0000
0000
0000
0000
0000
0000
0000
0000
0000
0000
0000
0000
0000
0000
0000
0000
0000
0000
0000
0000
0002
0000
0000
0000
0000
0000
0000
0000
0000
0000
0000
0000
0000
0000
0000
0000
0000
0000
0000
0000
0000
0000
0000
0000
0000
0000
0000
0000
0000
0000
0000
0000
0000
0000
0000
0000
0000
0000
0000
0000
0003
0000
0000
0000
0000
0000
0000
0000
,
1000
0000
1000
0000
0100
1000
0100
0000
0001
0000
0001
0000
0010
0001
0010
0000
,
2000
0000
0000
0000
0000
3000
0000
0000
0000
0000
0000
0000
2000
0000
0000
0000
0000
0000
0000
0000
0000
0000
0000
0000
0000
0000
0000
0000
0000
0000
3000
0000
0200
0000
0000
0000
0000
0300
0000
0000
0000
0000
0000
0000
0200
0000
0000
0000
0000
0000
0000
0000
0000
0000
0000
0000
0000
0000
0000
0000
0000
0000
0300
0000
,
0020
0000
0000
0000
0000
0030
0000
0000
0000
0000
0000
0000
0020
0000
0000
0000
0000
0000
0000
0000
0000
0000
0000
0000
0000
0000
0000
0000
0000
0000
0030
0000
0002
0000
0000
0000
0000
0003
0000
0000
0000
0000
0000
0000
0002
0000
0000
0000
0000
0000
0000
0000
0000
0000
0000
0000
0000
0000
0000
0000
0000
0000
0003
0000
,
0001
0010
0100
1000
0001
0010
0100
1000
,
0001
0010
0100
1000
0001
0010
0100
1000
,
0100
0010
0100
1000
0100
0010
0100
0010
0001
0010
0100
0001
0010
0100
1000
0100
,
0010
0001
0010
0100
0010
0100
1000
0001
0010
0100
1000
0100
0010
0001
0100
0010
,
1000
0100
0010
1000
0100
0010
0001
0010
0100
0001
0010
0100
1000
0100
0010
0001
,
0010
0100
1000
0100
0010
0001
0010
0100
1000
0001
1000
0001
0100
0010
0100
0010
,
0100
1000
0011
0000
0100
0011
0000
0011
,
1000
0100
1010
0101
0001
0010
0101
1010
,
0010
0001
1100
0000
0001
1100
0000
1100
,
0001
0010
0100
1000
0001
0100
0010
1000
,
0100
0010
1001
0000
0100
1001
0000
1001
,
0010
0100
0011
1100
0100
0010
1100
0011
,
0100
0001
1010
0000
0100
1010
0000
1010
,
0100
0000
0001
0000
0010
0000
1000
0000
0001
0000
0010
0000
0100
0010
0100
0010
,
0100
1010
0000
1010
0001
1100
0000
1100
,
0010
1001
0000
1001
0100
0011
0000
0011
,
1000
0101
0000
0101
1000
0110
0000
0110
,
1000
0000
0100
0000
0010
0000
0001
0000
0100
0010
0100
0010
1000
0001
1000
0001
,
0010
0100
1000
0001
0100
0010
0001
1000
,
0010
0000
0001
0000
1000
0000
0100
0000
0001
0010
0100
0000
1000
0000
0001
0000
,
0010
0100
1000
0100
0010
0000
0001
0000
1000
0100
0010
0000
0001
1000
0000
0100
,
0001
0010
0100
1000
0100
0010
0001
0010
0100
1000
0100
0010
0001
0010
0100
0010
,
1001
0000
1001
0000
1001
0000
0000
0011
,
1100
0000
1100
0000
1100
0000
0000
0011
,
0200
0300
2000
3000
0200
0300
0020
0030
,
0002
0003
0020
0030
0200
0300
2000
3000
,
1100
0000
1010
0000
0011
0000
0000
0110
,
1001
0000
0101
0000
0110
0000
0000
0101
,
0020
0030
0002
0003
0020
0030
0200
0300
,
2000
3000
0200
0300
0020
0030
0002
0003
,
0001
0000
1000
0000
0001
0010
0100
0000
1000
0000
0001
0000
1000
0100
0010
0000
,
0000
1001
0010
1001
,
0010
0000
0100
0000
0010
0100
0001
0000
0100
0000
0010
0000
0100
0010
1000
0000
,
0010
0100
0010
1000
0001
0010
0100
0010
0100
0010
1000
0010
1001
0000
0000
0000
,
0100
0000
0100
0000
0100
0010
0100
0000
0100
0000
0100
0000
0100
0010
0100
0000
,
0100
0000
1000
0000
0001
0000
0010
1000
0100
0001
0100
0010
0100
0000
0010
0000
,
0100
0000
0100
0000
0100
0010
0100
0000
0100
0000
0100
0000
0100
0010
0100
0000
,
0100
0000
0100
0000
0100
0010
0100
0000
0100
0000
0100
0000
0100
0010
0100
0022
,
0000
0000
0000
0000
0000
0033
0000
0000
0000
0000
0000
0000
0000
0000
0000
0000
;

//---------------dance-single - Very Easy----------------
#NOTES:
     dance-single:
     Very Easy:
     Beginner:
     3:
     0.436,0.578,0.385,0.393,0.018,561.000,95.000,97.000,0.000,0.000:
0000
1000
0000
0000
0000
0100
0000
0000
,
0000
0010
0000
0000
0000
0001
0000
0000
,
0000
1000
0000
0000
0000
0100
0000
0000
,
0002
0000
0000
0000
0000
0000
0000
0003
0200
0000
0000
0000
0000
0000
0000
0300
,
0020
0000
0000
0000
,
0000
0000
0000
0000
0000
0000
0000
0030
,
0000
1000
0000
0000
0000
0100
0000
0000
,
0002
0000
0000
0000
0000
0000
0000
0003
0200
0000
0000
0000
0000
0000
0000
0300
,
0020
0000
0000
0000
0000
0000
0000
0000
0000
0000
0000
0000
0000
0000
0000
0000
0000
0000
0000
0000
0030
0000
0000
0000
0000
0000
0000
0000
0000
0000
0000
1001
0000
0000
0000
0000
0000
0000
0000
0000
0000
0000
0000
0000
0000
0000
0000
0000
0000
0000
0000
0000
0000
0000
0000
0000
0000
0000
0000
0000
0000
0000
0000
0000
,
0200
0000
0000
0000
0000
0000
0000
0300
0002
0000
0000
0000
0000
0000
0000
0003
,
0020
0000
0000
0030
0000
0000
0000
0000
0010
0000
0000
0000
0000
0000
0000
0000
,
0010
0000
1010
0000
,
0100
0000
0010
0000
,
1000
0000
0100
0000
0010
0000
0002
0003
,
0100
1000
0001
0010
,
0100
1000
0010
0100
,
0020
0000
0000
0000
0000
0030
0000
0000
0002
0000
0000
0000
0000
0003
0000
0000
,
2000
0000
0000
0000
0000
0000
0000
0000
0000
0000
0000
0000
0000
0000
0000
0000
0000
0000
0000
0000
3000
0000
0000
0000
0200
0000
0000
0000
0000
0300
0000
0000
,
0010
0100
0001
1000
,
0100
1000
0001
0010
,
2000
0000
0000
0000
0000
3000
0000
0000
0200
0000
0000
0000
0000
0300
0000
0000
,
0002
0000
0000
0000
0000
0000
0000
0000
0000
0000
0000
0000
0000
0000
0000
0000
0000
0000
0000
0000
0003
0000
0000
0000
0020
0000
0000
0000
0000
0030
0000
0000
,
1000
0010
0100
0001
,
0010
1000
0001
0100
,
0200
0000
0000
0000
0000
0300
0000
0000
0020
0000
0000
0000
0000
0030
0000
0000
,
2000
0000
0000
0000
0000
0000
0000
0000
0000
0000
0000
0000
0000
0000
0000
0000
0000
0000
0000
0000
3000
0000
0000
0000
0002
0000
0000
0000
0000
0003
0000
0000
,
0010
1000
0100
0001
,
0100
0010
1000
0100
,
2000
0000
0000
0000
0000
3000
0000
0000
0020
0000
0000
0000
0000
0030
0000
0000
,
0002
0000
0000
0000
0000
0000
0000
0000
0000
0000
0000
0000
0000
0000
0000
0000
0000
0000
0000
0000
0003
0000
0000
0000
0200
0000
0000
0000
0000
0300
0000
0000
,
0011
0000
1100
0000
,
0110
0000
1001
0000
,
0200
0000
0000
0300
2000
0000
0000
3000
,
0002
0000
0000
0003
0020
0000
0000
0030
,
0101
0000
1010
0000
,
1001
0000
0110
0000
,
0020
0000
0000
0030
0002
0000
0000
0003
,
2000
0000
0000
3000
0200
0000
0000
0300
,
0010
0000
1001
0000
0100
0011
0000
0011
,
1000
0100
0011
0000
0010
0000
2200
3300
,
0001
0100
0010
0100
,
1000
0001
0100
0010
,
0200
0000
0000
0000
0000
0300
0000
0000
2000
0000
0000
0000
0000
3000
0000
0000
,
0002
0000
0000
0000
0000
0000
0000
0000
0000
0000
0000
0000
0000
0000
0000
0000
0000
0000
0000
0000
0003
0000
0000
0000
0020
0000
0000
0000
0000
0030
0000
0000
,
1000
0100
0010
1000
,
0001
0010
1000
0010
,
0002
0000
0000
0000
0000
0003
0000
0000
0200
0000
0000
0000
0000
0300
0000
0000
,
0020
0000
0000
0000
0000
0000
0000
0000
0000
0000
0000
0000
0000
0000
0000
0000
0000
0000
0000
0000
0030
0000
0000
0000
2000
0000
0000
0000
0000
3000
0000
0000
,
0011
0000
1100
0000
,
0101
0000
1010
0000
,
0002
0000
0000
0003
0200
0000
0000
0300
,
0020
0000
0000
0030
2000
0000
0000
3000
,
0011
0000
1100
0000
,
0110
0000
1001
0000
,
2000
0000
0000
3000
0020
0000
0000
0030
,
0200
0000
0000
0300
0002
0000
0000
0003
,
0000
0000
0110
0000
0000
0110
0000
0000
,
0000
1100
0000
0011
,
0000
0000
1010
0000
0000
1010
0000
0000
,
0001
0010
1000
0100
,
0000
0000
0101
0000
0000
0101
0000
0000
,
0000
1100
0000
0011
,
0000
0000
0110
0000
0000
0110
0000
0000
,
0001
0000
0010
0000
0100
0000
1000
0001
,
0100
0100
0010
0010
0100
0100
0010
0010
,
0000
1001
0000
1001
,
0010
0010
0100
0100
0010
0010
0100
0100
,
0000
0000
1001
0100
0010
0000
1001
0000
,
1000
1000
0001
0001
1000
1000
0001
0001
,
0000
1100
1010
0011
,
0100
0100
1000
1000
0010
0010
0001
0001
,
0100
0011
0000
0011
0000
0101
0000
0101
,
0000
1001
0000
1001
0000
1001
0000
1001
,
0100
0011
0000
0011
0000
0101
0000
0101
,
1000
0010
0100
0010
0001
0000
0010
0000
,
1000
0010
0100
0010
,
0010
0001
1000
0001
,
1000
0100
0001
0100
,
0100
0001
1000
0000
0100
0000
0010
0000
,
1001
0010
0100
0001
,
1000
0000
0010
0000
2000
0000
0000
3000
,
0010
0001
1000
0010
,
0100
0000
0001
0000
0020
0000
0000
0030
,
1000
0001
0100
0010
,
1000
0000
0010
0000
0002
0000
0000
0003
,
0100
0001
0010
1000
,
0001
0000
0010
0000
0200
0000
0000
0300
,
0020
0000
0000
0000
0000
0000
0000
0000
0000
0000
0000
0000
0000
0030
0000
0000
1100
0000
0000
0000
0000
0000
0000
0000
0000
0000
0000
0000
0000
0000
0000
0000
,
0100
0000
0110
0000
,
2002
0000
0000
3003
0110
0000
0000
0000
,
2000
0000
0000
0000
0000
0000
0000
3000
0200
0000
0000
0000
0000
0000
0000
0300
,
0002
0000
0000
0000
0000
0000
0000
0000
0000
0000
0000
0000
0000
0000
0000
0000
0000
0000
0000
0000
0000
0000
0000
0000
0000
0000
0000
0000
0000
0000
0000
0003
1100
0000
0000
0000
0000
0000
0000
0000
0000
0000
0000
0000
0000
0000
0000
0000
0000
0000
0000
0000
0000
0000
0000
0000
0000
0000
0000
0000
0000
0000
0000
0000
,
0020
0000
0000
0000
0000
0000
0000
0030
2000
0000
0000
0000
0000
0000
0000
3000
,
0200
0000
0000
0000
0000
0300
0000
0000
0000
0000
0000
0000
0000
0000
0000
0000
0100
0000
0000
0000
0000
0000
0000
0000
0000
0000
0000
0000
0000
0000
0000
0000
,
0001
0000
0010
0000
0100
0000
2000
3000
,
0001
0100
0010
1000
,
0001
0100
0010
0001
,
0200
0000
0000
0000
0000
0300
0000
0000
0020
0000
0000
0000
0000
0030
0000
0000
,
2000
0000
0000
0000
0000
0000
0000
0000
0000
0000
0000
0000
0000
0000
0000
0000
0000
0000
0000
0000
3000
0000
0000
0000
0002
0000
0000
0000
0000
0003
0000
0000
,
0100
1000
0001
0100
,
0010
0100
0001
0010
,
2000
0000
0000
0000
0000
3000
0000
0000
0020
0000
0000
0000
0000
0030
0000
0000
,
0200
0000
0000
0000
0000
0000
0000
0000
0000
0000
0000
0000
0000
0000
0000
0000
0000
0000
0000
0000
0300
0000
0000
0000
0002
0000
0000
0000
0000
0003
0000
0000
,
0010
1000
0001
1000
,
0100
0010
0001
0100
,
0002
0000
0000
0000
0000
0003
0000
0000
0200
0000
0000
0000
0000
0300
0000
0000
,
2000
0000
0000
0000
0000
0000
0000
0000
0000
0000
0000
0000
0000
0000
0000
0000
0000
0000
0000
0000
3000
0000
0000
0000
0020
0000
0000
0000
0000
0030
0000
0000
,
1000
0010
0100
1000
,
0001
0100
0010
0001
,
0200
0000
0000
0000
0000
0300
0000
0000
0020
0000
0000
0000
0030
0000
1000
0000
,
0001
0000
1000
0000
0001
1000
0010
0100
,
0010
1000
0100
0010
1000
0010
0001
1000
,
0000
0000
0200
0000
0000
0000
0000
0000
0000
0000
0000
0000
0000
0000
0000
0000
0000
0000
0000
0000
0000
0000
0000
0000
0000
0000
0000
0000
0000
0000
0000
0000
0000
0000
0000
0000
0000
0000
0000
0000
0000
0000
0000
0000
0000
0000
0000
0000
0000
0000
0000
0000
0000
0000
0000
0000
0000
0000
0000
0000
0000
0000
0000
0300
,
0001
0100
0001
0100
0001
0100
0001
0001
,
0000
0000
0000
0000
0020
0000
0000
0000
0000
0000
0000
0000
0000
0000
0000
0000
0000
0000
0000
0000
0000
0000
0000
0000
0000
0000
0000
0000
0000
0000
0000
0000
0000
0000
0000
0000
0000
0000
0000
0000
0000
0000
0000
0000
0000
0000
0000
0000
0000
0000
0000
0000
0000
0000
0000
0000
0000
0000
0000
0000
0000
0000
0000
0000
0000
0000
0000
0000
0000
0000
0000
0000
0000
0000
0000
0000
0000
0000
0000
0000
0000
0000
0000
0000
0000
0000
0000
0030
0000
0000
0000
0000
0000
0000
0000
0000
0000
0000
0000
0000
0002
0000
0000
0000
0000
0000
0000
0000
0000
0000
0000
0000
0000
0000
0000
0000
0000
0000
0000
0000
0000
0000
0000
0000
0000
0000
0000
0000
0000
0000
0000
0000
0000
0000
0000
0000
0000
0000
0000
0000
0000
0000
0000
0000
0000
0000
0000
0000
0000
0000
0000
0000
0000
0000
0000
0000
0000
0000
0000
0000
0000
0000
0000
0000
0000
0000
0000
0000
0000
0000
0000
0000
0000
0000
0000
0000
0000
0000
0000
0000
0000
0000
0000
0000
0000
0000
0000
0000
0000
0003
0000
0000
,
1000
0000
0000
0000
0000
0000
0000
0000
0010
0000
0000
0000
0000
0000
0000
0000
1000
0000
0000
0000
0000
0000
0000
0000
0010
0000
0000
0000
0000
0000
0000
0000
1000
0000
0000
0000
0000
0000
0000
0000
0010
0000
0000
0000
0000
0000
0000
0000
1000
0000
0000
0000
0000
0000
0000
0000
1000
0000
0000
0000
0000
0000
0000
0010
,
0000
0000
0000
0000
0000
0000
0000
0000
0000
0000
0000
0000
0000
0000
0000
0001
0000
0000
0000
0000
0000
0000
0000
0000
0000
0000
0000
0000
0000
0000
0000
0000
0100
0000
0000
0000
0000
0000
0000
0000
0000
0000
0000
0000
0000
0000
0000
0000
0020
0000
0000
0000
0000
0000
0000
0000
0000
0000
0000
0000
0000
0000
0030
0000
,
1000
1000
0100
0100
0001
0001
0010
0010
,
2000
0000
0000
0000
0000
0000
0000
0000
0000
0000
0000
0000
0000
0000
0000
3000
0200
0000
0000
0000
0000
0000
0000
0000
0000
0000
0000
0000
0000
0000
0000
0300
,
0020
0000
0000
0000
0000
0000
0000
0000
0000
0000
0000
0000
0000
0000
0000
0030
0002
0000
0000
0000
0000
0000
0000
0000
0000
0000
0000
0000
0000
0000
0000
0003
,
0001
0010
0100
1000
,
0001
0010
0100
1000
,
0100
0010
0001
1000
0100
0001
0010
0100
,
0001
1000
0100
0001
0010
0100
1000
0001
,
0010
1000
0010
0001
0010
1000
0100
0001
,
0100
1000
0010
0100
0001
1000
0100
0001
,
0000
0000
0011
0000
0000
0011
0000
0000
,
0000
1010
0000
0101
,
0000
0000
1100
0000
0000
1100
0000
0000
,
0100
0001
1000
0010
,
0000
0000
1001
0000
0000
1001
0000
0000
,
0000
0011
0000
1100
,
0000
0000
1010
0000
0000
1010
0000
0000
,
0100
0000
0001
0000
1000
0000
0100
0010
,
0100
1010
0000
1010
0000
1100
0000
1100
,
0000
1001
0000
1001
0000
0011
0000
0011
,
1000
0101
0000
0101
0000
0110
0000
0110
,
1000
0000
0001
0000
0100
0010
1000
0001
,
0010
1000
0100
0010
,
0001
0000
1000
0000
0001
0010
0100
0000
,
1000
0000
0100
0000
0010
0000
0000
0000
1000
0000
0010
0000
0000
0100
0000
0000
,
0001
0010
0100
1000
0100
0010
0001
0010
,
1001
0000
0110
0000
,
1100
0000
0011
0000
,
0002
0000
0000
0003
0200
0000
0000
0300
,
0020
0000
0000
0030
2000
0000
0000
3000
,
0011
0000
1010
0000
,
1001
0000
0101
0000
,
2000
0000
0000
3000
0020
0000
0000
0030
,
0200
0000
0000
0300
0002
0000
0000
0003
,
0001
1000
0001
0100
1000
0001
1000
0010
,
0000
1001
0000
1001
,
0010
0100
0010
0001
0100
0010
0100
1000
,
0010
0100
0001
0100
1000
0010
1001
0000
,
0100
0100
0010
0100
0100
0100
0010
0100
,
0100
0000
1000
0000
0001
0000
0010
0000
0100
0001
0010
0000
0100
0000
0010
0000
,
0100
0100
0010
0100
0100
0100
0010
0100
,
0100
0000
0100
0000
0010
0000
0100
0000
0100
0000
0100
0000
0010
0000
0100
0002
,
0000
0000
0000
0000
0000
0003
0000
0000
0000
0000
0000
0000
0000
0000
0000
0000
;
